Login
Username:
Password:
[Signup]
[Recover Account]


Browse Torrents

Poll


You must be logged in to view polls



Latest Torrents
Heartless Hathyara...
- [Size: 401.25 MB]

Serenity.2019.BDRi...
- [Size: 1.52 GB]

Resolution.Song.20...
- [Size: 1.32 GB]

Mary Queen of Scot...
- [Size: 2.96 GB]

Resolution.Song.20...
- [Size: 1.32 GB]


Torrent Details For "Beautifully.Broken.2018.DVDRip.x264.LLG"

Beautifully.Broken.2018.DVDRip.x264.LLG

Download this torrent | Magnet Download
Health:
Seeds: 3
Leechers: 12
Completed:
Last Checked: 12-02-2019 06:03:43
External Torrent
Update Stats



Images Host

Poster
No poster


iMDB
Title: Beautifully Broken
Year: 2018
Runtime: 108 minutes
Votes: 222
Rating: 5.4/10
Language: English
Tagline: Three families. Two worlds. One incredible true story.
Director: Eric Welch
Writing By: Brad Allen,Chuck Howard,Mark E. McCann,Martin Michael,Eric Welch,
Produced By: Brad Allen,Lisa Arnold,Jarred Coates,Michelle Duffie,David Jose Ferreira,Chuck Howard,Martin Michael,Geno Taylor,Jacques Van Rooyen,Eric Welch,
Music: Vince Emmett Geoff Koch
Cast:
Benjamin A. Onyango as William Mwizerwa
Scott William Winters as Randy Hartley
Emily Hahn as Andrea Hartley
Caitlin Nicol-Thomas as Darla Hartley
Ditebogo Ledwaba as Umuhoza
Sibulele Gcilitshana as Keza
Bonko Khoza as Mugenzi
Michael W. Smith as Pastor Henry
Eva Ndachi as Ebraille Mwizerwa
Toby McKeehan as Himself
Trailers:
Beautifully Broken
Movie trailer


Watch-Free-HD     Download

Details
Name:Beautifully.Broken.2018.DVDRip.x264.LLG
Description:

Quote:



******************************Thumbnail:**********************

 

******************************Screenshots:********************

 Screenshot 1

 Screenshot 2

 Screenshot 3

 Screenshot 4

 Screenshot 5

 Screenshot 6

 Screenshot 7

 Screenshot 8

 Screenshot 9

 Screenshot 0


******************************************************

Beautifully.Broken.2018.DVDRip.x264.LLG.mp4
Format                                   : MPEG-4
Format profile                           : Base Media
Codec ID                                 : isom (isom/iso2/avc1/mp41)
File size                                : 824 MiB
Duration                                 : 1 h 50 min
Overall bit rate mode                    : Variable
Overall bit rate                         : 1 042 kb/s

Video
ID                                       : 1
Format                                   : AVC
Format/Info                              : Advanced Video Codec
Format profile                           : [email protected]
Format settings                          : CABAC / 1 Ref Frames
Format settings, CABAC                   : Yes
Format settings, RefFrames               : 1 frame
Codec ID                                 : avc1
Codec ID/Info                            : Advanced Video Coding
Duration                                 : 1 h 50 min
Bit rate mode                            : Variable
Bit rate                                 : 908 kb/s
Maximum bit rate                         : 2 700 kb/s
Width                                    : 720 pixels
Height                                   : 406 pixels
Display aspect ratio                     : 16:9
Frame rate mode                          : Constant
Frame rate                               : 23.976 (23976/1000) FPS
Color space                              : YUV
Chroma subsampling                       : 4:2:0
Bit depth                                : 8 bits
Scan type                                : Progressive
Bits/(Pixel*Frame)                       : 0.129
Stream size                              : 718 MiB (87%)
Language                                 : English


Audio
ID                                       : 2
Format                                   : AAC LC
Format/Info                              : Advanced Audio Codec Low Complexity
Codec ID                                 : mp4a-40-2
Duration                                 : 1 h 50 min
Bit rate mode                            : Constant
Bit rate                                 : 129 kb/s
Channel(s)                               : 2 channels
Channel layout                           : L R
Sampling rate                            : 48.0 kHz
Frame rate                               : 46.875 FPS (1024 SPF)
Compression mode                         : Lossy
Stream size                              : 102 MiB (12%)
Language                                 : English
Default                                  : Yes
Alternate group                          : 1



********************************************************


Category:Movies > DVDRips
Lang:English  English
Total Size:836.79 MB
Info Hash:c1fbbbd575d8bc86ce0466d75bbd5ffecba6fe1c
Added By:LifeLongg
Date Added:12-02-2019 04:49:46
Downloads:25

Ratings:Not Yet Rated (Log in to rate it)


Tracker:
udp://tracker.openbittorrent.com:80/announce


File List: 


Comments

No comments still posted

Top
Copyright 2018 DownloadHD -|- Page Generated In 0.792467 secs.
-|- RSS Feed -|- Feed Info