Login
Username:
Password:
[Signup]
[Recover Account]


Browse Torrents

Poll


You must be logged in to view polls



Latest Torrents
NCIS.New.Orleans.S...
- [Size: 912.54 MB]

NCIS.New.Orleans.S...
- [Size: 281.67 MB]

NCIS.New.Orleans.S...
- [Size: 915.60 MB]

NCIS.New.Orleans.S...
- [Size: 282.90 MB]

Lethal.Weapon.S03E...
- [Size: 959.32 MB]


Torrent Details For "Alita Battle Angel 2019 720p HDCAM x264 Dual Audio [Hindi - English] [MW]"

Alita Battle Angel 2019 720p HDCAM x264 Dual Audio [Hindi - English] [MW]

Download this torrent | Magnet Download
Health:
Seeds: 938
Leechers: 802
Completed: 2,498 
Last Checked: 10-02-2019 18:05:02
External Torrent
Update Stats



Images Host

Poster
No poster


Watch-Free-HD     Download

Details
Name:Alita Battle Angel 2019 720p HDCAM x264 Dual Audio [Hindi - English] [MW]
Description:

 


General
Format                                   : Matroska
Format version                           : Version 4
File size                                : 1.12 GiB
Duration                                 : 1 h 58 min
Overall bit rate                         : 1 347 kb/s

Video
ID                                       : 1
Format                                   : AVC
Format/Info                              : Advanced Video Codec
Format profile                           : [email protected]
Format settings                          : CABAC / 4 Ref Frames
Format settings, CABAC                   : Yes
Format settings, RefFrames               : 4 frames
Codec ID                                 : V_MPEG4/ISO/AVC
Duration                                 : 1 h 58 min
Bit rate                                 : 1 100 kb/s
Width                                    : 1 280 pixels
Height                                   : 536 pixels
Display aspect ratio                     : 2.40:1
Frame rate mode                          : Constant
Frame rate                               : 29.970 (30000/1001) FPS
Color space                              : YUV
Chroma subsampling                       : 4:2:0
Bit depth                                : 8 bits
Scan type                                : Progressive
Bits/(Pixel*Frame)                       : 0.053
Stream size                              : 923 MiB (81%)
Writing library                          : x264 core 157 r2935 545de2f

Audio #1
ID                                       : 2
Format                                   : AAC LC
Codec ID                                 : A_AAC-2
Duration                                 : 1 h 58 min
Bit rate                                 : 128 kb/s
Channel(s)                               : 2 channels
Channel layout                           : L R
Sampling rate                            : 48.0 kHz
Frame rate                               : 46.875 FPS (1024 SPF)
Compression mode                         : Lossy
Stream size                              : 109 MiB (9%)
Language                                 : Hindi
Default                                  : Yes
Forced                                   : No

Audio #2
ID                                       : 3
Format                                   : AAC LC
Codec ID                                 : A_AAC-2
Duration                                 : 1 h 58 min
Bit rate                                 : 128 kb/s
Channel(s)                               : 2 channels
Channel layout                           : L R
Sampling rate                            : 48.0 kHz
Frame rate                               : 46.875 FPS (1024 SPF)
Compression mode                         : Lossy
Stream size                              : 109 MiB (10%)
Language                                 : English
Default                                  : No
Forced                                   : No


Click To View Image

 http://pichub.site/image/k0mLX
 http://pichub.site/image/k0uQ8
 http://pichub.site/image/k0UG5
 http://pichub.site/image/k0N7J
 http://pichub.site/image/k00Ij
 http://pichub.site/image/k0vZh

Category:Movies > Hollywood Dub
Lang:Hindi
Total Size:1.12 GB
Info Hash:5670c365c76837edce6abbd5b3b8e1af2204c591
Added By:Freaky
Date Added:10-02-2019 07:13:56
Downloads:976

Ratings:Not Yet Rated (Log in to rate it)


Tracker:
udp://tracker.coppersurfer.tk:6969/announce


File List: 


Comments

No comments still posted

Top
Copyright 2018 DownloadHD -|- Page Generated In 0.386117 secs.
-|- RSS Feed -|- Feed Info